Honlap-menü
A fejezet kategóriái
Filmek [56]
PROGRAMOK [3]
VIDEOCLIP [17]
jratlttt ( Albumok ) [20]
MP3,SINGLE [219]
Magyar Zene [271]
Magyar Nóták [0]
Klfldi Zene [136]
Rock-Metl [36]
RETRO [119]
Gyerek albumok [4]
Mulatos [280]
Mixek /Remixek vegyes [152]
Gipsy zene [164]
Gipsy zene /-2017 [24]
Jazz-Blues [1]
EuroDance-Italo Disco [62]
Bdi Guszti [6]
Látogatók
csacsi26, lacsik68, gallattila
Statisztika

Online összesen: 2
Vendégek: 1
Felhasználók: 1
gallattila
Rádió
Mondd meg te!
Melyik rádió szóljon az oldalon?Még változtathatsz!
1. Laza mulatós
2. Mercy roma
3. Másikra szavazok!
Összes válasz: 243
Mik Legyenek még az oldalon?
1. Letölthető filmek
2. Csak zene
3. Programok
4. Online filmek
Összes válasz: 330
Főoldal » Fájlok » Filmek [ Bejegyzés hozzáadása ]

A svindlerek királya (Incautos) Dvdrip hun (2004)
2018-07-27, 5:28 PM
színes szinkronizált spanyol krimi, 108 perc, 2004 16 éven aluliak számára nem ajánlott

Rendező: Miguel Bardem
Szereplők: Ernesto Alterio, Victoria Abril, Federico Luppi, Manuel Alexandre, Gilbert Melki

Tartalom:

Ernesto már gyermekkorában a hazugság bűnébe esik; később, neveldebeli barátjával, a Cigánnyal, lopásokkal szerzik a betevőt. A kisstílű bulik szintjéről akkor sikerül továbblépniük, amikor megismerik Zsebest, az öregedő zsebtolvajvirtuózt. Ernestót bemutatják Fredericónak, aki a legnagyobb svindler széles Spanyolhonban. Ernesto ekkor ébred rá, hogy a balekok kifosztása már-már művészet tud lenni. A piti lopások hirtelen milliós üzletekre váltanak. Ám, aki profikkal dolgozik, annak tisztában kell lennie azzal, hogy mandzsettás bűnözőből kisemmizetté válni pillanatok kérdése.

Format : AVI
Format/Info : Audio Video Interleave
File size : 707 MiB
Duration : 1 h 47 min
Overall bit rate mode : Variable
Overall bit rate : 920 kb/s
Writing application : MEncoder 1.0rc1-4.1.1
Writing library : MPlayer

Video
ID : 0
Format : MPEG-4 Visual
Format profile : Simple@L1
Format settings, BVOP : No
Format settings, QPel : No
Format settings, GMC : No warppoints
Format settings, Matrix : Default (H.263)
Codec ID : XVID
Codec ID/Hint : XviD
Duration : 1 h 47 min
Bit rate : 795 kb/s
Width : 576 pixels
Height : 256 pixels
Display aspect ratio : 2.25:1
Frame rate : 25.000 FPS
Color space : YUV
Chroma subsampling : 4:2:0
Bit depth : 8 bits
Scan type : Progressive
Compression mode : Lossy
Bits/(Pixel*Frame) : 0.216
Stream size : 611 MiB (86%)
Writing library : Lavc51.21.0

Audio
ID : 1
Format : MPEG Audio
Format version : Version 1
Format profile : Layer 3
Format settings : Joint stereo
Codec ID : 55
Codec ID/Hint : MP3
Duration : 1 h 47 min
Bit rate mode : Variable
Bit rate : 112 kb/s
Channel(s) : 2 channels
Sampling rate : 48.0 kHz
Compression mode : Lossy
Stream size : 86.0 MiB (12%)
Alignment : Aligned on interleaves
Interleave, duration : 24 ms (0.60 video frame)
Interleave, preload duratio : 144 ms
Writing library : LAME3.97
Kategória: Filmek | Hozzáadta:: Tag | Címkék (kulcsszavak): MEGKÖSZÖNNI NEM SZÉGYEN!!!
Megtekintések száma: 11 | Letöltések: 0 | Helyezés: 5.0/1
Összes hozzászólás: 0
avatar
Személyes
Legfrisebb
Scooter - Discography (1994 - 2017)
LEGJOBB DISZKÓ ZENÉK 2018 BEST DISCO
VA-Real Retro House Ultimate Top100(5CD)
BBE - Seven Days And One Week (Remixes) (1996)
B.B.E. (BBE) - 7 Days And One Week (2010) - 2009, FLAC (tracks+.cue),
B.B.E. (BBE) - Seven Days And One Week - 2003, FLAC (tracks+.cue) lossless
Blümchen Discography (9 Albums + 20 Singles) 1995 - 2003 [image+.cue] Lossless FLAC
Bedrótozva (Hardwired) Dvdrip hun (2009)
Bikinis bombázók bevetésen (Hard.Breakers).2010.CUSTOM.DVDRiP.HUN.XViD-TiGeR .avi
E-Rotic - Discography (1995 - 2003)
Brooklyn Bounce Discography (1996-2011)
Icarus.2017.web.x264-strife.mkv hunsub
Bódi Guszti és Margó - Bántasz vagy nem (2018)
A bátrak (Only.the.Brave).2017.CUSTOM.BDRip.x264.HuN-nIk .mkv
Szűzőrség (blockers).bdrip-no1 .mkv hun (2018)
-RADIO ZENE FREE
i
Megosztom
Forum TÉMA
  • Sztárlimonádé Aranyalbum (2018) (2)
  • Az utolsó éjjel (25th Hour) 2002 (0)
  • Gladiátor (Gladiator) 2000 (0)
  • A lény (Species) 1995 (0)
  • Roma Vállogatás(2017.08.20) (1)
  • Loretta - Tied a boldogság (2017) (4)
  • M: G -, hogy egy kis zaj ( 1998) (0)
  • Format-C Vs. Ponte Gabry - Valaki hívott (FLAC) (0)
  • COAST feat. Arzu - a Push It (FLAC) (0)
  • Top Dance `96 (0)
  • L.L. Junior - Más környékről származom (2017) (2)
  • Csocsesz - ``Nem Költöm A Pénzem Patikára (1)
  • Csocsesz - ``Nincs Hibám (0)
  • Fekete Pákó - ``Kislány Vigyázz (0)
  • Roulett - ``Megy A Buli (0)
  • Joker - Vajdaság (2016) (3)
  • FATIMA x MARIO- Egyedül -2017 (1)
  • Jolly Sandro - Te amo-2017 (2)
  • Hívatlanok 2 - Éjjeli préda (0)
  • Berki family - Rudikaígy múlik el 2018 (1)
  • Percy Jackson - Szörnyek tengere (0)
  • Warcraft: A kezdetek (0)
  • Fekete Párduc (0)
  • Kalandorok kapuja (0)
  • Thor: Ragnarök (0)
  • Az Igazság Ligája (0)
  • A kihallgatás (Interrogation) (0)
  • Kis Lorenzo - Elfeledlek .mp3 (2)
  • Szilveszteri házibuli - 2016. legjobb mulatós zenéi (1)
  • Roulett - Ma kimulatom magam (2018) (0)
  • Hasznos
      
    Fórum bejegyzések
    Copyright MyCorp © 2018
    Honlapszerkesztő - uCoz
    2
    Chat elrejtése
    Chat megnyitása
    Kérjük, lépjen be vagy regisztráljon
    0