Honlap-menü
A fejezet kategóriái
Filmek [8]
PROGRAMOK [1]
VIDEOCLIP [12]
jratlttt ( Albumok ) [20]
MP3,SINGLE [205]
Magyar Zene [263]
Magyar Nóták [0]
Klfldi Zene [121]
Rock-Metl [35]
RETRO [116]
Gyerek albumok [4]
Mulatos [263]
Mixek /Remixek vegyes [140]
Gipsy zene [158]
Gipsy zene /-2017 [23]
Jazz-Blues [1]
EuroDance-Italo Disco [56]
Bdi Guszti [6]
Látogatók
M-simsy, LAJCSI, lolo111, laci1977, strapa7, Bandika, csacsi26, vazel, takacsviktor1456, trucza27, muczamelinda
Statisztika

Online összesen: 2
Vendégek: 1
Felhasználók: 1
lolo111
Rádió
Mondd meg te!
Melyik rádió szóljon az oldalon?Még változtathatsz!
1. Laza mulatós
2. Mercy roma
3. Másikra szavazok!
Összes válasz: 238
Mik Legyenek még az oldalon?
1. Letölthető filmek
2. Csak zene
3. Programok
4. Online filmek
Összes válasz: 319
Főoldal » Fájlok » Filmek [ Bejegyzés hozzáadása ]

Hang nélkül A Quiet Place (2018) Hunsub New HDCAM-X264-MP3-NeNi
2018-04-16, 4:41 PM
Mintakép:

My WebPage

Format : Matroska
Format version : Version 4 / Version 2
File size : 1 014 MiB
Duration : 1 h 23 min
Overall bit rate : 1 693 kb/s
Movie name : A Quiet Place (2018) ENG New HDCAM-X264-MP3-NeNi
Encoded date : UTC 2018-04-08 02:58:06
Writing application : mkvmerge v13.0.0 ('The Juggler') 64bit
Writing library : libebml v1.3.4 + libmatroska v1.4.5

Video
ID : 1
Format : AVC
Format/Info : Advanced Video Codec
Format profile : Baseline@L3
Format settings : 1 Ref Frames
Format settings, CABAC : No
Format settings, ReFrames : 1 frame
Codec ID : V_MPEG4/ISO/AVC
Duration : 1 h 23 min
Bit rate : 1 500 kb/s
Width : 720 pixels
Height : 350 pixels
Display aspect ratio : 2.057
Frame rate mode : Constant
Frame rate : 29.970 (30000/1001) FPS
Color space : YUV
Chroma subsampling : 4:2:0
Bit depth : 8 bits
Scan type : Progressive
Bits/(Pixel*Frame) : 0.199
Stream size : 898 MiB (89%)
Writing library : x264 core 119
Default : Yes
Forced : No

Audio
ID : 2
Format : MPEG Audio
Format version : Version 1
Format profile : Layer 3
Format settings : Joint stereo / MS Stereo
Codec ID : A_MPEG/L3
Codec ID/Hint : MP3
Duration : 1 h 23 min
Bit rate mode : Constant
Bit rate : 192 kb/s
Channel(s) : 2 channels
Sampling rate : 48.0 kHz
Frame rate : 41.667 FPS (1152 SPF)
Compression mode : Lossy
Delay relative to video : -23 ms
Stream size : 115 MiB (11%)
Writing library : LAME3.98.4
Language : English
Default : Yes
Forced : No

NINCS JELSZÓ!
Kategória: Filmek | Hozzáadta:: Tag | Címkék (kulcsszavak): Megköszönni nem szégyen!
Megtekintések száma: 110 | Letöltések: 7 | Hozzászólások: 1 | Helyezés: 5.0/1
Összes hozzászólás: 1
avatar
1 Spam
1
Köszönöm
avatar
Személyes
Legfrisebb
Roma Music-2018
VA - Italo Super Hits Vol.41
2018 - Italo Disco & Space ot Vitaly
Kárpátia - Isten kegyelméből (2018)
Balogh Eszter - Pillanatok (2018)
Cairo - Süt A Nap (2018)
Béla és B. Andrea 2018 - Me tut kamav - (320 kbps).mp3
Kis Grófo - Pörög az éjszaka-2018 (320 kbps)
Sihell Vanessza - Álmomban Már Láttalak (2018)
Windows 10_1709_Hungarian_x64
Tulipánláz Tulip Fever bdrip hun (2017)
VA-Dance_Paradise_Vol_8_Mixed_By_Vicious_Pete-Bootleg-2006-eMF
Alexandra Stan - MAMI (2018) Mp3 [320 kbps]
SANDU CIORBA - VOL. 4 2018
Csonka István & Mr Gerald 2018 Fog A Kezem Ölelj Át Újra (320 kbps).mp3
-RADIO ZENE FREE
i
Megosztom
Forum TÉMA
  • Joker - Vajdaság (2016) (3)
  • FATIMA x MARIO- Egyedül -2017 (1)
  • Loretta - Tied a boldogság (2017) (3)
  • Jolly Sandro - Te amo-2017 (2)
  • L.L. Junior - Más környékről származom (2017) (1)
  • Hívatlanok 2 - Éjjeli préda (0)
  • Berki family - Rudikaígy múlik el 2018 (1)
  • Percy Jackson - Szörnyek tengere (0)
  • Warcraft: A kezdetek (0)
  • Fekete Párduc (0)
  • Kalandorok kapuja (0)
  • Thor: Ragnarök (0)
  • Az Igazság Ligája (0)
  • A kihallgatás (Interrogation) (0)
  • Kis Lorenzo - Elfeledlek .mp3 (2)
  • Szilveszteri házibuli - 2016. legjobb mulatós zenéi (1)
  • Roulett - Ma kimulatom magam (2018) (0)
  • Morvai Dani - Érezd a ritmust (2017) (1)
  • PIcaBA Group - VA MULATO 2016.01 (1)
  • Jumanji-Var.a.dzsungel.2017 (0)
  • A titkok kulcsa (0)
  • Légcsavar (0)
  • Szárnyas.Fejvadász.2049.2017 (0)
  • PIcaBA Group--VA Mulato 2017 Március (0)
  • PIcaBA Group-VA Mulato 2017 április (0)
  • Teki Lala - Sörre bor (2005) (1)
  • ÁBRAHÁM - VELED MÁS A VILÁG-2017 (1)
  • Enrikó - Ilyen egy sztár élete-2017 (0)
  • Egyedi Luis & Roxana -Szerelem első látásra-2017 (0)
  • Dado Kincsó - Szép a szerelem-2017 (0)
  • Hasznos
      
    Fórum bejegyzések
    Copyright MyCorp © 2018
    Honlapszerkesztő - uCoz
    2
    Chat elrejtése
    Chat megnyitása
    Kérjük, lépjen be vagy regisztráljon
    0