Honlap-menü
A fejezet kategóriái
Filmek [116]
PROGRAMOK [3]
VIDEOCLIP [23]
jratlttt ( Albumok ) [20]
MP3,SINGLE [219]
Magyar Zene [337]
Magyar Nóták [1]
Klfldi Zene [152]
Rock-Metl [44]
RETRO [158]
Gyerek albumok [4]
Mulatos [344]
Mixek /Remixek vegyes [158]
Gipsy zene [169]
Gipsy zene /-2017 [24]
Jazz-Blues [2]
EuroDance-Italo Disco [63]
Bdi Guszti [10]
Látogatók
janika, sistvan0905, janika857250, gajo0102, krisz19890109, tomika80, balazs91
Statisztika

Online összesen: 1
Vendégek: 1
Felhasználók: 0
Rádió
Mondd meg te!
Melyik rádió szóljon az oldalon?Még változtathatsz!
1. Laza mulatós
2. Mercy roma
3. Másikra szavazok!
Összes válasz: 248
Mik Legyenek még az oldalon?
1. Csak zene
2. Letölthető filmek
3. Programok
4. Online filmek
Összes válasz: 337
Főoldal » Fájlok » Filmek [ Bejegyzés hozzáadása ]

Hang nélkül A Quiet Place (2018) Hunsub New HDCAM-X264-MP3-NeNi
2018-04-16, 4:41 PM
Mintakép:

My WebPage

Format : Matroska
Format version : Version 4 / Version 2
File size : 1 014 MiB
Duration : 1 h 23 min
Overall bit rate : 1 693 kb/s
Movie name : A Quiet Place (2018) ENG New HDCAM-X264-MP3-NeNi
Encoded date : UTC 2018-04-08 02:58:06
Writing application : mkvmerge v13.0.0 ('The Juggler') 64bit
Writing library : libebml v1.3.4 + libmatroska v1.4.5

Video
ID : 1
Format : AVC
Format/Info : Advanced Video Codec
Format profile : Baseline@L3
Format settings : 1 Ref Frames
Format settings, CABAC : No
Format settings, ReFrames : 1 frame
Codec ID : V_MPEG4/ISO/AVC
Duration : 1 h 23 min
Bit rate : 1 500 kb/s
Width : 720 pixels
Height : 350 pixels
Display aspect ratio : 2.057
Frame rate mode : Constant
Frame rate : 29.970 (30000/1001) FPS
Color space : YUV
Chroma subsampling : 4:2:0
Bit depth : 8 bits
Scan type : Progressive
Bits/(Pixel*Frame) : 0.199
Stream size : 898 MiB (89%)
Writing library : x264 core 119
Default : Yes
Forced : No

Audio
ID : 2
Format : MPEG Audio
Format version : Version 1
Format profile : Layer 3
Format settings : Joint stereo / MS Stereo
Codec ID : A_MPEG/L3
Codec ID/Hint : MP3
Duration : 1 h 23 min
Bit rate mode : Constant
Bit rate : 192 kb/s
Channel(s) : 2 channels
Sampling rate : 48.0 kHz
Frame rate : 41.667 FPS (1152 SPF)
Compression mode : Lossy
Delay relative to video : -23 ms
Stream size : 115 MiB (11%)
Writing library : LAME3.98.4
Language : English
Default : Yes
Forced : No

NINCS JELSZÓ!
Kategória: Filmek | Hozzáadta:: Tag | Címkék (kulcsszavak): Megköszönni nem szégyen!
Megtekintések száma: 388 | Letöltések: 9 | Hozzászólások: 1 | Helyezés: 5.0/1
Összes hozzászólás: 1
avatar
1 Spam
1 mercike05 • 4:55 PM, 2018-04-16
Köszönöm
avatar
Személyes
Legfrisebb
Ket Haver - Szivem zakatol (2016)
Megjelenés: 2010
Bródy János - Az Illés Szekerén (Felújított Kiadás) (2018) 2CD
Thor-Ragnarok
Janicsák Veca - A második X
Kaszas Peter - Valaki alljon mellettem
Ragadozók - (Predators) 2010 színes, szinkronizált (5.1), amerikai, sci-fi/akciófilm, BDRip.XviD, 1,46 GB
Meg - Az őscápa: Szinkronizált,amerikai akció horror sci-fi thriller, 2018 (12)
Title: Best Of 2018: Die Hits Des Jahres [2CD]
Kiss Palika - Ugy mosolyog ram
Trezor: Szinkronizált,magyar thriller, 2018 (16)
A védelmező 2. (2018)
Kis Palika - Viharban Születtem (2018)
Exotic - Líra (Másképpen) (2018)
Zene-free-Roma válogatás-2018
-RADIO ZENE FREE
i
Megosztom
Forum TÉMA
  • Sztárlimonádé Aranyalbum (2018) (5)
  • Loretta: Zeneterápia-2018 (0)
  • Roma Vállogatás(2017.08.20) (2)
  • Az utolsó éjjel (25th Hour) 2002 (0)
  • Gladiátor (Gladiator) 2000 (0)
  • A lény (Species) 1995 (0)
  • Loretta - Tied a boldogság (2017) (4)
  • M: G -, hogy egy kis zaj ( 1998) (0)
  • Format-C Vs. Ponte Gabry - Valaki hívott (FLAC) (0)
  • COAST feat. Arzu - a Push It (FLAC) (0)
  • Top Dance `96 (0)
  • L.L. Junior - Más környékről származom (2017) (2)
  • Csocsesz - ``Nem Költöm A Pénzem Patikára (1)
  • Csocsesz - ``Nincs Hibám (0)
  • Fekete Pákó - ``Kislány Vigyázz (0)
  • Roulett - ``Megy A Buli (0)
  • Joker - Vajdaság (2016) (3)
  • FATIMA x MARIO- Egyedül -2017 (1)
  • Jolly Sandro - Te amo-2017 (2)
  • Hívatlanok 2 - Éjjeli préda (0)
  • Berki family - Rudikaígy múlik el 2018 (1)
  • Percy Jackson - Szörnyek tengere (0)
  • Warcraft: A kezdetek (0)
  • Fekete Párduc (0)
  • Kalandorok kapuja (0)
  • Thor: Ragnarök (0)
  • Az Igazság Ligája (0)
  • A kihallgatás (Interrogation) (0)
  • Kis Lorenzo - Elfeledlek .mp3 (2)
  • Szilveszteri házibuli - 2016. legjobb mulatós zenéi (1)
  • Hasznos
      
    Fórum bejegyzések
    Copyright MyCorp © 2018
    Honlapszerkesztő - uCoz
    1
    Chat elrejtése
    Chat megnyitása
    Kérjük, lépjen be vagy regisztráljon
    0