Honlap-menü
A fejezet kategóriái
Filmek [116]
PROGRAMOK [3]
VIDEOCLIP [23]
jratlttt ( Albumok ) [20]
MP3,SINGLE [219]
Magyar Zene [337]
Magyar Nóták [1]
Klfldi Zene [152]
Rock-Metl [44]
RETRO [158]
Gyerek albumok [4]
Mulatos [344]
Mixek /Remixek vegyes [158]
Gipsy zene [169]
Gipsy zene /-2017 [24]
Jazz-Blues [2]
EuroDance-Italo Disco [63]
Bdi Guszti [10]
Látogatók
janika, sistvan0905, janika857250, gajo0102, krisz19890109, tomika80, balazs91
Statisztika

Online összesen: 2
Vendégek: 1
Felhasználók: 1
gajo0102
Rádió
Mondd meg te!
Melyik rádió szóljon az oldalon?Még változtathatsz!
1. Laza mulatós
2. Mercy roma
3. Másikra szavazok!
Összes válasz: 248
Mik Legyenek még az oldalon?
1. Csak zene
2. Letölthető filmek
3. Programok
4. Online filmek
Összes válasz: 337
Főoldal » Fájlok » Filmek [ Bejegyzés hozzáadása ]

Rampage.Tombolas.2018.CAM.HUN.cinema.zsozso
2018-04-16, 7:56 AM

Mintakép:



http://p.coldline.hu/2018/04/15/2815940-20180415-bRFr5F.png


Format : MPEG-4

Format profile : Base Media

Codec ID : isom (isom/iso2/avc1/mp41)

File size : 731 MiB

Duration : 1 h 39 min

Overall bit rate : 1 030 kb/s

Writing application : Lavf57.83.100



Video

ID : 1

Format : AVC

Format/Info : Advanced Video Codec

Format profile : High@L3.1

Format settings : CABAC / 5 Ref Frames

Format settings, CABAC : Yes

Format settings, ReFrames : 5 frames

Codec ID : avc1

Codec ID/Info : Advanced Video Coding

Duration : 1 h 39 min

Bit rate : 896 kb/s

Width : 960 pixels

Height : 480 pixels

Display aspect ratio : 2.2:1

Original display aspect rat : 2.2:1

Frame rate mode : Constant

Frame rate : 29.970 (30000/1001) FPS

Color space : YUV

Chroma subsampling : 4:2:0

Bit depth : 8 bits

Scan type : Progressive

Bits/(Pixel*Frame) : 0.065

Stream size : 635 MiB (87%)

Writing library : x264 core 148 r2643 5c65704



Audio

ID : 2

Format : AAC

Format/Info : Advanced Audio Codec

Format profile : LC

Codec ID : mp4a-40-2

Duration : 1 h 39 min

Bit rate mode : Constant

Bit rate : 128 kb/s

Channel(s) : 2 channels

Channel positions : Front: L R

Sampling rate : 44.1 kHz

Frame rate : 43.066 FPS (1024 SPF)

Compression mode : Lossy

Stream size : 91.2 MiB (12%)

Default : Yes

Alternate group : 1



nincs jelszó megköszönni nem szégyen!!!


Kategória: Filmek | Hozzáadta:: Tag | Címkék (kulcsszavak): Megköszönni nem szégyen!
Megtekintések száma: 246 | Letöltések: 10 | Hozzászólások: 4 | Helyezés: 5.0/1
Összes hozzászólás: 4
avatar
1 Spam
1 security79 • 10:35 AM, 2018-04-16
pray  pray  pray
avatar
1 Spam
2 mercike05 • 5:17 PM, 2018-04-16
kösz
avatar
1 Spam
3 donrodrigo • 5:15 PM, 2018-04-18
köszi
avatar
0 Spam
4 mama66 • 7:28 AM, 2018-05-23
Köszi
avatar
Személyes
Legfrisebb
Ket Haver - Szivem zakatol (2016)
Megjelenés: 2010
Bródy János - Az Illés Szekerén (Felújított Kiadás) (2018) 2CD
Thor-Ragnarok
Janicsák Veca - A második X
Kaszas Peter - Valaki alljon mellettem
Ragadozók - (Predators) 2010 színes, szinkronizált (5.1), amerikai, sci-fi/akciófilm, BDRip.XviD, 1,46 GB
Meg - Az őscápa: Szinkronizált,amerikai akció horror sci-fi thriller, 2018 (12)
Title: Best Of 2018: Die Hits Des Jahres [2CD]
Kiss Palika - Ugy mosolyog ram
Trezor: Szinkronizált,magyar thriller, 2018 (16)
A védelmező 2. (2018)
Kis Palika - Viharban Születtem (2018)
Exotic - Líra (Másképpen) (2018)
Zene-free-Roma válogatás-2018
-RADIO ZENE FREE
i
Megosztom
Forum TÉMA
  • Sztárlimonádé Aranyalbum (2018) (5)
  • Loretta: Zeneterápia-2018 (0)
  • Roma Vállogatás(2017.08.20) (2)
  • Az utolsó éjjel (25th Hour) 2002 (0)
  • Gladiátor (Gladiator) 2000 (0)
  • A lény (Species) 1995 (0)
  • Loretta - Tied a boldogság (2017) (4)
  • M: G -, hogy egy kis zaj ( 1998) (0)
  • Format-C Vs. Ponte Gabry - Valaki hívott (FLAC) (0)
  • COAST feat. Arzu - a Push It (FLAC) (0)
  • Top Dance `96 (0)
  • L.L. Junior - Más környékről származom (2017) (2)
  • Csocsesz - ``Nem Költöm A Pénzem Patikára (1)
  • Csocsesz - ``Nincs Hibám (0)
  • Fekete Pákó - ``Kislány Vigyázz (0)
  • Roulett - ``Megy A Buli (0)
  • Joker - Vajdaság (2016) (3)
  • FATIMA x MARIO- Egyedül -2017 (1)
  • Jolly Sandro - Te amo-2017 (2)
  • Hívatlanok 2 - Éjjeli préda (0)
  • Berki family - Rudikaígy múlik el 2018 (1)
  • Percy Jackson - Szörnyek tengere (0)
  • Warcraft: A kezdetek (0)
  • Fekete Párduc (0)
  • Kalandorok kapuja (0)
  • Thor: Ragnarök (0)
  • Az Igazság Ligája (0)
  • A kihallgatás (Interrogation) (0)
  • Kis Lorenzo - Elfeledlek .mp3 (2)
  • Szilveszteri házibuli - 2016. legjobb mulatós zenéi (1)
  • Hasznos
      
    Fórum bejegyzések
    Copyright MyCorp © 2018
    Honlapszerkesztő - uCoz
    2
    Chat elrejtése
    Chat megnyitása
    Kérjük, lépjen be vagy regisztráljon
    0