Honlap-menü
A fejezet kategóriái
Filmek [119]
PROGRAMOK [3]
VIDEOCLIP [23]
jratlttt ( Albumok ) [20]
MP3,SINGLE [219]
Magyar Zene [339]
Magyar Nóták [1]
Klfldi Zene [152]
Rock-Metl [44]
RETRO [158]
Gyerek albumok [4]
Mulatos [349]
Mixek /Remixek vegyes [164]
Gipsy zene [169]
Gipsy zene /-2017 [24]
Jazz-Blues [2]
EuroDance-Italo Disco [64]
Bdi Guszti [10]
Látogatók
Körtisz, reflex, janika, LAJCSI, Mc, göndör, sistvan0905, Tibor, szilveszter292, totgyu74, grundamiklos, bmoni88, tasi, gbanda78, mogyi, Eszti, krisz19890109, baloghricsi99, trucza27, czaczalg3d, fierback, mercike05, rezmuvesjanika, aszivak, ltamas25, szazdin, szilvia7838, ranczinger24, jozsika086, bobbo680905, gasparjoco25, [Teljes lista]
Statisztika

Online összesen: 3
Vendégek: 1
Felhasználók: 2
Zsoca, szilvia7838
Rádió
Mondd meg te!
Melyik rádió szóljon az oldalon?Még változtathatsz!
1. Laza mulatós
2. Mercy roma
3. Másikra szavazok!
Összes válasz: 248
Mik Legyenek még az oldalon?
1. Csak zene
2. Letölthető filmek
3. Programok
4. Online filmek
Összes válasz: 337
Főoldal » Fájlok » Filmek [ Bejegyzés hozzáadása ]

Tulipánláz Tulip Fever bdrip hun (2017)
2018-05-07, 7:51 AM
angol-amerikai romantikus dráma, 105 perc, 2016

Stáblista:
Szereplők
Jan Van Loos
Dane DeHaan
Sophia
Alicia Vikander
Cornelis Sandvoort
Christoph Waltz
Henrietta
Cara Delevingne
William
Jack O'Connell
Dr. Sorgh
Tom Hollander
Maria
Holliday Grainger
Alkotók
RENDEZŐ:
Justin Chadwick
FORGATÓKÖNYVÍRÓ:
Tom Stoppard
OPERATŐR:
Eigil Bryld
ZENE:
Danny Elfman
PRODUCER:
Alison Owen
Harvey Weinstein
VÁGÓ:
Rick Russell

A 17. századi Amszterdamban az elárvult Sophiát házasságba kényszerítik egy vagyonos és befolyásos kereskedővel, ami anyagi biztonságot, de egyben boldogtalanságot is jelent a lány számára. Amikor férje portrét rendel róla, szenvedélyes viszonyba bonyolódik fiatal festőjével. Hogy elmenekülhessenek a kereskedő messzire érő kezei elől, a két szerelmes mindent kockára téve beszáll a tulipánhagyma-üzletbe, abban a reményben, hogy a megfelelő mennyiségű hagymával elég pénzre tesznek szert szabadságuk megváltásához.

Format : Matroska
Format version : Version 4 / Version 2
File size : 1.01 GiB
Duration : 1 h 44 min
Overall bit rate : 1 379 kb/s
Encoded date : UTC 2018-04-29 10:27:40
Writing application : mkvmerge v22.0.0 ('At The End Of The World') 64-bit
Writing library : libebml v1.3.5 + libmatroska v1.4.8

Video
ID : 1
Format : AVC
Format/Info : Advanced Video Codec
Format profile : High@L4.1
Format settings : CABAC / 16 Ref Frames
Format settings, CABAC : Yes
Format settings, ReFrames : 16 frames
Codec ID : V_MPEG4/ISO/AVC
Duration : 1 h 44 min
Bit rate : 929 kb/s
Width : 720 pixels
Height : 302 pixels
Display aspect ratio : 2.40:1
Frame rate mode : Constant
Frame rate : 23.976 (24000/1001) FPS
Color space : YUV
Chroma subsampling : 4:2:0
Bit depth : 8 bits
Scan type : Progressive
Bits/(Pixel*Frame) : 0.178
Stream size : 696 MiB (67%)
Writing library : x264 core 152 r2851kMod ba24899
Default : Yes
Forced : No

Audio
ID : 2
Format : AC-3
Format/Info : Audio Coding 3
Codec ID : A_AC3
Duration : 1 h 44 min
Bit rate mode : Constant
Bit rate : 448 kb/s
Channel(s) : 6 channels
Channel positions : Front: L C R, Side: L R, LFE
Sampling rate : 48.0 kHz
Frame rate : 31.250 FPS (1536 SPF)
Bit depth : 16 bits
Compression mode : Lossy
Stream size : 336 MiB (32%)
Language : Hungarian
Service kind : Complete Main
Default : Yes
Forced : No
Kategória: Filmek | Hozzáadta:: Tag | Címkék (kulcsszavak): Megköszönni nem szégyen!
Megtekintések száma: 142 | Letöltések: 4 | Helyezés: 5.0/1
Összes hozzászólás: 0
avatar
Személyes
Legfrisebb
Sziasztok szép napot Mindenkinek.PIcaBA Group - VA ITALO DANCE PARTY vol 1 2018
PIcaBA Group - VA ITALO DANCE PARTY vol 2 2018
Legendás állatok - Grindelwald bűntettei: Szinkronizált(mozis),amerikai angol kaland fantasy, 2018 (12)
BassCrasher - HungaroDancer Vol.3
cd1-cd2
Matyi és a Hegedűs Megamix
MISI Best- of
Best Of Hungarian Club Musics vol.10
Dj Cibi- Generácio 2 Megamix
McaBA
L.Amur keleti varázslat. 2007
Kozmix Hitmix 1994- 1999.
Tajtiboy-Fujja el a szél 2010
Tajtiboy-Kifogtam az Aranyhalat
Démonok között 2 - (The Conjuring 2) 2016: színes, szinkronizált (5.1, +felirat), amerikai, thriller/horror, DVDRip.XviD, 1,70 GB
-RADIO ZENE FREE
i
Megosztom
Forum TÉMA
  • Sztárlimonádé Aranyalbum (2018) (5)
  • Loretta: Zeneterápia-2018 (0)
  • Roma Vállogatás(2017.08.20) (2)
  • Az utolsó éjjel (25th Hour) 2002 (0)
  • Gladiátor (Gladiator) 2000 (0)
  • A lény (Species) 1995 (0)
  • Loretta - Tied a boldogság (2017) (4)
  • M: G -, hogy egy kis zaj ( 1998) (0)
  • Format-C Vs. Ponte Gabry - Valaki hívott (FLAC) (0)
  • COAST feat. Arzu - a Push It (FLAC) (0)
  • Top Dance `96 (0)
  • L.L. Junior - Más környékről származom (2017) (2)
  • Csocsesz - ``Nem Költöm A Pénzem Patikára (1)
  • Csocsesz - ``Nincs Hibám (0)
  • Fekete Pákó - ``Kislány Vigyázz (0)
  • Roulett - ``Megy A Buli (0)
  • Joker - Vajdaság (2016) (3)
  • FATIMA x MARIO- Egyedül -2017 (1)
  • Jolly Sandro - Te amo-2017 (2)
  • Hívatlanok 2 - Éjjeli préda (0)
  • Berki family - Rudikaígy múlik el 2018 (1)
  • Percy Jackson - Szörnyek tengere (0)
  • Warcraft: A kezdetek (0)
  • Fekete Párduc (0)
  • Kalandorok kapuja (0)
  • Thor: Ragnarök (0)
  • Az Igazság Ligája (0)
  • A kihallgatás (Interrogation) (0)
  • Kis Lorenzo - Elfeledlek .mp3 (2)
  • Szilveszteri házibuli - 2016. legjobb mulatós zenéi (1)
  • Hasznos
      
    Fórum bejegyzések
    Copyright MyCorp © 2018
    Honlapszerkesztő - uCoz
    3
    Chat elrejtése
    Chat megnyitása
    Kérjük, lépjen be vagy regisztráljon
    0